MP3. Flou - Angèle MP3, Paroles et clip à écouter et télécharger légalement 3.0M . Official DR value: DR6, Samplerate: 44100 Hz Please read and accept our website Terms and Privacy Policy to post a comment. These music files do not include lyrics. Check out Brol [Explicit] by Angèle on Amazon Music. Victime des réseaux - Angèle - MP3 instrumental karaoke. Insomnies. Report. Flou Angèle More by Angèle. Angèle – Flou (Live) | Vevo DSCVR ARTISTS TO WATCH 2019 Download mp3. Your No.1 source for MP3 instrumental tracks, This title is a cover of Flou as made famous by Angèle, Duration: 03:18 - Preview at: - Martin Garrix - Summer Days (feat. Flou MP3 Song by Ang from the French movie Brol. Instrumental Version MP3. Key. Пошумим. Same as the original tempo: 92 BPM. VA - 100 Hits Winter 2020 [5CD] (2020) MP3 7 torrent download locations Download Direct VA - 100 Hits Winter 2020 [5CD] (2020) MP3 could be available for direct download Spónsored Link google.com VA - 100 Hits Winter 2020 [5CD] (2020) MP3 10 months torlock.com VA - 100 Hits Winter 2020 [5CD] (2020) MP3 Music 6 hours monova.org VA - 100 Hits Winter 2020 [5CD] (2020) MP3 Other French Pop Music, Electro, In French Key F Minor. DR5 -0.22 dB -7.81 dB 3:09 02-Balance ton quoi Хип-хоп для спортивных танцев. Discover releases, reviews, credits, songs, and more about Angèle - Brol at Discogs. Original songwriter: Angèle, Tristan Salvati. Perdus - Angèle - MP3 instrumental karaoke. With backing vocals. Free mp3 music songs download online. Access type. Bits per sample: 24 3.6M . DR6 -0.22 dB -8.62 dB 2:55 08-Les matins This title is a cover version of Flou as made famous by Angèle. ... Flou. Uplevel BACK 2.8M . Angèle. RELEASED OCTOBER 5, 2018 ℗ 2018 ANGÈLE VL RECORDS. The instrumental for Flou is in the key of F Minor, has a tempo of 113 bpm, and is 3 minutes and 16 seconds long. Angèle. File type. Genres: Victime des réseaux - Angèle - MP3 instrumental karaoke. SHOW ALL. Angèle - La Thune 02. - Martin Garrix - Summer Days (feat. Jain - Gloria 10. Insomnies download. Download: MP3, 320 Kbit Listens: 79 Downloads: 18 Styles: Electro Remix to: Angèle - Flou Duration: 2:55 BPM: 125 Key: Fm Mastered Size: 6.7Mb Recording: 20 September 2019 12. In the same key as the original: Fm This song ends without fade out Duration: 03:18 - Preview at: 01:32. 19 - Angèle - Flou.mp3 download. Music Videos. Contributions: 61 translations, 974 thanks received, 8 translation requests fulfilled for 4 members, explained 1 idiom, left 3 comments Angèle feat. download 28 Files download 28 Original. Pop, Généraliste, Informations, Top 50, Rock. 2.9m Followers, 583 Following, 453 Posts - See Instagram photos and videos from Angèle (@angele_vl) MARINA & Luis Fonsi) 11. Tu me regardes. download 19 files . Flou Your No.1 source for MP3 instrumental tracks, This title is a cover of Jalousie as made famous by Angèle, Duration: 3:48 - Preview at: Brol is the first studio album released by Angèle, a young Belgian artist from Brussels. Angèle - Victime des réseaux 08. Uplevel BACK 2.8M . TORRENT download. Label ℗ 2019 Angèle VL Records. Entdecken Sie Flou von Angèle bei Amazon Music. Macklemore & Patrick Stump of Fall Out Boy).mp3" Get the complete list of Brol mp3 songs free online. Flou - Angèle - MP3 instrumental karaoke. With backing vocals. Angèle - Flou 06. DR6 -0.22 dB -8.24 dB 3:25 09-Je veux tes yeux Télécharger Nrj Holiday 2019 en torrent . La loi de Murphy. Flou made famous by Angèle • 2 music tracks in MP3 instrumental version • 1 music track with vocals (cover) Best free search mp3 and mp4 music songs downloads site Angèle - Flou [CLIP OFFICIEL] | Floux Angèle - Les Matins 09. Your No.1 source for MP3 instrumental tracks. Angèle - Flemme 12. ... Flou. Tempo 113 bpm. Check out Flou by Angèle on Amazon Music. Angèle - Je veux tes yeux 10. Tempo: variable (around 69 BPM) ... Flou. DR5 -0.22 dB -8.42 dB 3:17 12-Flou Vocal Backing Track MP3 $1.99. VBR MP3 . Oui ou non download. What is the title? Same as the original tempo: 113 BPM. VBR M3U download. In the same key as the original: Fm This track ends without fading out Duration: 3:18 - Sample at: 1:32. Key. Give it a 2 stars? download 1 file . Vocal Backing Track MP3 $1.99. Instrumental Version MP3. 07 Angèle Ta Reine ( Version Orchestrale) ... Angèle - Flou.ogg download. Download the karaoke with lyrics. Flou made famous by Angèle • 2 music tracks in MP3 instrumental version • 1 music track with vocals (cover) Insomnies. Watch the video for Flou from Angèle's Playlist hits Automne 2019 Vol.2 for free, and see the artwork, lyrics and similar artists. Télécharger Nrj Holiday 2019 en torrent . Listen free to Angèle – Brol, la suite (La Thune, Balance ton quoi and more). Angèle - Ta reine 11. [ OxTorrent.com ] VA - 110 Hits 2020-5CD-2019 (WEB.MP3 a 320kbps) EICHBAUM 6 torrent download locations Download Direct [ OxTorrent.com ] VA - 110 Hits 2020-5CD-2019 (WEB.MP3 a 320kbps) EICHBAUM could be available for direct download Spónsored Link google.com [ OxTorrent.com ] VA - 110 Hits 2020-5CD-2019 (WEB.MP3 a 320kbps) EICHBAUM 10 months torrent9.pl 110 Hits 2020 Musique Angèle – Flou (Live) | Vevo DSCVR ARTISTS TO WATCH 2019 Download mp3. download 1 file . Brol La Suite 2019 S'en aller (feat. Format: MP3 320 Kbps This title is a cover of Flou as made famous by Angèle. Codec: FLAC Roméo Elvis - Tout oublier 05. The comment form collects your name, email and content to allow us keep track of the comments placed on the website. Angèle. Save my name, email, and website in this browser cookies for the next time I comment. DR7 -0.30 dB -9.02 dB 3:15 05-La loi de Murphy She was born in Uccle, Brussels-Capital Region. --------------------------------------------------------------------------------, DR Peak RMS Duration Track November 7, 2019. Direct access to the radio page: : Latest titles and artists played on/radio/activ-radio-mp3.html Macklemore & Patrick Stump of Fall Out Boy) 12. Angèle - Flou Angèle - Balance ton quoi 03. Discover more music, concerts, videos, and pictures with the largest catalogue online at Last.fm. Angèle. ... or by exporting MP3 files to your computer and playing on any MP3 compatible music player. VA - Music Pack 062 (2020) torrent download location Download Direct VA - Music Pack 062 (2020) could be available for direct download Spónsored Link google.com VA - Music Pack 062 (2020) 3 months. Angèle. Find the best place to Brol movie songs download list. Faouzia) - From 'SCOOB!' Download: MP3, 320 Kbit Listens: 56 Downloads: 17 Styles: Electro Remix to: Angèle - Flou Duration: 4:27 BPM: 125 Key: Fm Mastered Size: 10.2Mb Recording: 20 September 2019 Vocal Backing Track MP3 $1.99. Jonas Brothers - Sucker 07. download 19 files . VBR M3U download. This title is a cover of Perdus as made famous by Angèle. This title is a cover of Flou as made famous by Angèle. Angèle (3) + Brol = 2 awards at the occasion of "Les Victoires de la Musique 2019" (2019-02-08): Revelation Album of the Year & Audiovisual Production of the year for the video of "Tout Oublier". CpasBien - Films et Séries en torrents sur CpasBien, Cestpasbien, telecharger torrent, films, series sur c pas bien Sam Smith - Dancing With A Stranger 09. Daily updates! Angèle donne ses premiers concerts dans des cafés de Bruxelles. Direct access to the radio page:. Además, te ofrecemos la oportunidad de escuchar música online, y como consecuencia, bajarla en forma segura, frenando que tu computadora de escritorio, o teléfono, se infecte con software malintencionados. Angèle – Flou – an exclusive live performance for Vevo DSCVR ARTISTS TO WATCH 2019, an annual series highlighting those that are shaping the future of music. Same as the original tempo: 113 BPM. Key. -------------------------------------------------------------------------------- Using BitTorrent is legal, downloading copyrighted material isn’t. Vitaa - VERSUS 08. Angèle. Download Flou song on Gaana.com and listen Brol Flou song offline. This title is a cover version of Flou as made famous by Angèle. Stream ad-free or purchase CD's and MP3s now on Amazon.com. Flou Lyrics: J'ai commencé par Instagram / C'était cool, j'avais un très bon programme / Petit concert dans des bars vides / Ma baby-sitter la première à m'suivre / Ensuite tout a changé très Werbefrei streamen oder als CD und MP3 kaufen bei Amazon.de. DR8 -0.24 dB -11.89 dB 3:13 06-Nombreux IN COLLECTIONS. 3.0M . Wav, mp3, aif, m4a, flac, ogg or acc: 5min or 49MB max. Genres. La loi de Murphy. Streaming and by permanent download to your computer and/or device. Translation of 'Flou' by Angèle from French to English. Same as the original tempo: 113 BPM. Macklemore & Patrick Stump of Fall Out Boy).mp3" Release date: 2018 Flou. Flou - Angèle - Custom Backing Track MP3. TORRENT download. Released. Martin Garrix - Summer Days (feat. Por fin terminas de encontrar Angele Flou.Pero no solo eso, sino te hallas a nada de descargar mp3 gratis de muy buena calidad como no ofrecen otras paginas. Angèle - Flou (Gregcy Extended Remix) PR 0,6 Like Give Premium. In the same key as the original: Fm. DR6 -0.22 dB -8.84 dB 3:23 07-Victime des réseaux View credits, reviews, tracks and shop for the 2018 180 Grs, White Vinyl release of Brol on Discogs. Instrumental Version MP3. DR6 -0.22 dB -7.57 dB 4:16 11-Flemme Latest titles and artists played on activ-radio-mp3. 3.3M . 0. Perdus download. Bitrate: 1553 kbps Acabas de encontrar Angele Flou Remix.Pero no solo eso, sino que te encuentras a nada de descargar mp3 gratis en la mejor calidad como no existen en otras plataformas. Listen to free music and earn Hungama Coins, redeem Hungama coins … An icon used to represent a menu that can be toggled by interacting with this icon. Perdus download. Angele - Brol 24 bit Hi-Res Year Of Release: 2018 Genre: Pop Format: Flac, Tracks Bitrate: lossless, 24bit Sample Rate: 44100Hz Audio Channels: 2.0 Total Size: November 30, 2020 WRZmusic Angèle - Flou (Gregcy Radio Remix) PR 0,5 Like Give Premium. Angèle Van Laeken is the daughter of the singer Marka and of the actress Laurence Bibot. Rolling Stones – Voodoo Lounge (Mastered At Abbey Road Studios) 1994 (2020) [DSD 128, LP], Nick Cave – Idiot Prayer (Nick Cave Alone At Alexandra Palace) (2020) [Vinyl], Chance the Rapper and Jeremih – Merry Christmas Lil Mama: The Gift That Keeps On Giving (17 tracks) (2020) [24bit Hi-Res], Claude Williamson Trio – South Of The Border West Of The Sun 1992 (2017) [SACD], Pye Corner Audio – Discography [2005-2020], Creedence Clearwater Revival ‎– Creedence Clearwater Revival (2001) [6CD BoxSet], King Crimson – Complete 1969 Recordings (2020) [20CD BoxSet], Steve Wynn – Decade (2020) [24bit Hi-Res], John Kameel Farah – Strands (Solo Piano Improvisations) (2018) [24bit Hi-Res], Hartmut Rohde – Josef Tal: Works for Viola (2018) [24bit Hi-Res], Dream Theater – Web Collection [1989-2020], Andrew Weatherall – Discography [1990-2020], Angèle – Brol La Suite (2019) [24bit Hi-Res], Verve Jazzclub Collection (155 Releases) [2006-2013], The Very Best of 90s – Vol.1-4 [2010-2012], Top Of The Pops: Year by Year Collection (1964-2006) (2008) [43CD], Claude Williamson Trio – El Noche De Espana (2019) [SACD], Rick Wakeman And The English Rock Ensemble ‎- No Earthly Connection (1976) [DSD 128, LP], Melody Gardot – Live In Europe (2018) [DSD 128, Limited Edition, Vinyl], Justin Timberlake – The Complete 20/20 Experience (2013) [DSD 128, LP]. "15. "15. DR6 -0.21 dB -8.08 dB 3:22 01-La thune
12. Total length. DR6 -0.22 dB -7.51 dB 3:22 04-Tout oublier With backing vocals. Brol La Suite 2019 S'en aller (feat. Camelot 4A. With […] History titles awarded on the radio Activ Radio-mp3-192K. Same as the original tempo: 92 BPM. Angèle – Flou (Live) | Vevo DSCVR ARTISTS TO WATCH 2019 Download mp3. 19 tracks (64:32). Analyzed: Angele / Brol Here you can buy and download music mp3 Angele. 3.4M . Flou - Angèle - MP3 backing track.